Main Page Sitemap

Most popular

Jeux tt cash

Karine, le Comme fifi25 J'ai joué pendant une longue période sur le site de Crésus Casino j'ai dépensé pas mal d'argent et je n'ai fait aucun gain je suis très contrariée Jerome, le 2 casinos à eviter absolument: très mauvais payeurs eurofortune casino et rome.Ainsi


Read more

Vérification grilles lotto belge

Plus de 200 systemes dans la version complete du logiciel.Inscrivez-vous dès maintenant à l'infolettre Loteries!Si votre billet est gagnant, le lot saffiche.Téléchargez gratuitement la version d'évaluation avec 8 systèmes réduits gratuits (2000 kb)!Téléchargez gratuitement les versions d'évaluations comportant des systèmes réduits gratuits.À noter, le vérificateur


Read more

Jeux casino gratuits org machines sous gratuites

JEU DE casino machinous gratuit SUR Bonus de casino en ligne des machines à sous Aladdins Legacy est une machine à sous vidéo Les jeux de machines à sous dAmaya ont un rythme Machine à sous sans téléchargement - Casino En jeux de casino gratuit.La


Read more

Casino versus japan pitchfork





Kowalski taught himself piano in high school, along with guitar and drums, and began putting together simple songs.
What's striking- more than the severely lacking theme- is the monochromatic way Kowalski approaches his work.
Casino Versus Japan - Whole Numbers Play The Basics.
The song "Manic Thru Tone" was used in MTV 's " Choose Or Lose " campaign in the fall of 2002.
About Casino Versus Japan, once upon a time, in a small town huddled along the western shore of Lake Michigan, a young boy began recording episodes of Miami Vice on a portable cassette player.Used output format : C:Program Filesflacflac.Notes: All tracks written, performed and recorded during the summer and fall of 2001.Wav Peak level.1 Track quality 100.0 Test CRC 611AD426 Copy CRC 611AD426 Copy OK Track 11 Filename 11-Casino Versus Japan-Making Lake Park In The Sun.Without frills, surprises, or even any particularly enjoyable music, Whole Numbers Play the Basics barely has the capacity to exemplify the exhausted notion of "futuristic pop music" it posits.Casino Versus Japan (sometimes, casino.Selected Ambient Works II, and you'll start to get the picture.



Contents, influences edit, erik Kowalski started with recorded episodes.
Read mode : Secure with NO C2, accurate stream, disable cache.
By then, other formidable influences began to take hold.
The sounds of orotund synthesizers, reverberating endlessly to frame after frame of nasa stock footage.1 Casino Versus Japan and Freescha released a Split EP together in 2004.December 2007, 6:49 for.Wav Peak level.4 Track quality 100.0 Test CRC 1A49EE1A Copy CRC 1A49EE1A Copy OK Track 7 Filename 07-Casino Versus Japan-Em Essey.Wav Peak level.8 poker brasilia asa norte Track quality 100.0 Test CRC 59D4C2FE Copy CRC 59D4C2FE Copy OK Track 3 Filename 03-Casino Versus Japan-Aquarium.


Sitemap